[libav-devel] [PATCH 1/1] fate: make asf-repldata test results identical for all platforms

Janne Grunau janne-libav at jannau.net
Thu Aug 20 14:47:45 CEST 2015


---
 tests/fate/microsoft.mak    |  2 +-
 tests/ref/fate/asf-repldata | 28 ++++++++++++++--------------
 2 files changed, 15 insertions(+), 15 deletions(-)

diff --git a/tests/fate/microsoft.mak b/tests/fate/microsoft.mak
index 6f83d2e..fad033f 100644
--- a/tests/fate/microsoft.mak
+++ b/tests/fate/microsoft.mak
@@ -63,6 +63,6 @@ FATE_SAMPLES_AVCONV-$(CONFIG_VC1_DECODER) += $(FATE_VC1-yes)
 fate-vc1: $(FATE_VC1-yes)
 
 FATE_ASF_REPLDATA += fate-asf-repldata
-fate-asf-repldata: CMD = framecrc -i $(TARGET_SAMPLES)/asf/bug821-2.asf
+fate-asf-repldata: CMD = framecrc -flags +bitexact -idct simple -i $(TARGET_SAMPLES)/asf/bug821-2.asf
 
 FATE_SAMPLES_AVCONV-$(call DEMDEC, ASF, MPEG4) += $(FATE_ASF_REPLDATA)
diff --git a/tests/ref/fate/asf-repldata b/tests/ref/fate/asf-repldata
index 6a1dbae..164e41a 100644
--- a/tests/ref/fate/asf-repldata
+++ b/tests/ref/fate/asf-repldata
@@ -1,15 +1,15 @@
 #tb 0: 1/1000
-0,          0,          0,        0,   460800, 0x85b053af
-0,        122,        122,        0,   460800, 0xfbdbb291
-0,        245,        245,        0,   460800, 0x1389b3d9
-0,        367,        367,        0,   460800, 0xc81e8326
-0,        490,        490,        0,   460800, 0xb0028333
-0,        612,        612,        0,   460800, 0x002b8619
-0,        735,        735,        0,   460800, 0xeb808d70
-0,        857,        857,        0,   460800, 0xe8288d27
-0,        980,        980,        0,   460800, 0xcfbe8bcc
-0,       1102,       1102,        0,   460800, 0x682b8d38
-0,       1224,       1224,        0,   460800, 0x5879cd04
-0,       1347,       1347,        0,   460800, 0x88a6a3e6
-0,       1469,       1469,        0,   460800, 0xc491db72
-0,       1592,       1592,        0,   460800, 0xb779d5cc
+0,          0,          0,        0,   460800, 0x1f8b53b0
+0,        122,        122,        0,   460800, 0x95b6b292
+0,        245,        245,        0,   460800, 0xad55b3da
+0,        367,        367,        0,   460800, 0x61f98327
+0,        490,        490,        0,   460800, 0x49dd8334
+0,        612,        612,        0,   460800, 0x99f7861a
+0,        735,        735,        0,   460800, 0x855b8d71
+0,        857,        857,        0,   460800, 0x82038d28
+0,        980,        980,        0,   460800, 0x69998bcd
+0,       1102,       1102,        0,   460800, 0x02068d39
+0,       1224,       1224,        0,   460800, 0xf245cd05
+0,       1347,       1347,        0,   460800, 0x2281a3e7
+0,       1469,       1469,        0,   460800, 0x5f01db74
+0,       1592,       1592,        0,   460800, 0x51e9d5ce
-- 
2.5.0



More information about the libav-devel mailing list