[libav-devel] [PATCH] fate: add test for ASF

Alexandra Hájková alexandra.khirnova at gmail.com
Thu Aug 13 15:42:51 CEST 2015


Sample-ID: https://samples.libav.org/mplayer-bugs/bug821/bug821-2.asf
---
 tests/fate/microsoft.mak    |   5 +++
 tests/ref/fate/asf-repldata | 106 ++++++++++++++++++++++++++++++++++++++++++++
 2 files changed, 111 insertions(+)
 create mode 100644 tests/ref/fate/asf-repldata

diff --git a/tests/fate/microsoft.mak b/tests/fate/microsoft.mak
index 10bbb30..6f83d2e 100644
--- a/tests/fate/microsoft.mak
+++ b/tests/fate/microsoft.mak
@@ -61,3 +61,8 @@ fate-vc1-ism: CMD = framecrc -i $(TARGET_SAMPLES)/isom/vc1-wmapro.ism -an
 
 FATE_SAMPLES_AVCONV-$(CONFIG_VC1_DECODER) += $(FATE_VC1-yes)
 fate-vc1: $(FATE_VC1-yes)
+
+FATE_ASF_REPLDATA += fate-asf-repldata
+fate-asf-repldata: CMD = framecrc -i $(TARGET_SAMPLES)/asf/bug821-2.asf
+
+FATE_SAMPLES_AVCONV-$(call DEMDEC, ASF, MPEG4) += $(FATE_ASF_REPLDATA)
diff --git a/tests/ref/fate/asf-repldata b/tests/ref/fate/asf-repldata
new file mode 100644
index 0000000..0a9b131
--- /dev/null
+++ b/tests/ref/fate/asf-repldata
@@ -0,0 +1,106 @@
+#tb 0: 1/1000
+0,          0,          0,        0,   460800, 0x3e8bed13
+0,        168,        168,        0,   460800, 0x4062acfb
+0,        418,        418,        0,   460800, 0x85637cd0
+0,        627,        627,        0,   460800, 0xb26c7f04
+0,        753,        753,        0,   460800, 0x519c8704
+0,        962,        962,        0,   460800, 0x0d058666
+0,       1087,       1087,        0,   460800, 0x6c6b883f
+0,       1171,       1171,        0,   460800, 0x8345dd74
+0,       1296,       1296,        0,   460800, 0xe695b04c
+0,       1422,       1422,        0,   460800, 0x14ebb12d
+0,       1547,       1547,        0,   460800, 0x04abad12
+0,       1631,       1631,        0,   460800, 0xdfadaabe
+0,       1756,       1756,        0,   460800, 0x0928aca5
+0,       1840,       1840,        0,   460800, 0x2a2faf6d
+0,       1965,       1965,        0,   460800, 0x19aeb393
+0,       2049,       2049,        0,   460800, 0x62ddaeb7
+0,       2174,       2174,        0,   460800, 0x3d94b755
+0,       2258,       2258,        0,   460800, 0xa877c8a0
+0,       2383,       2383,        0,   460800, 0x2c759963
+0,       2509,       2509,        0,   460800, 0x788f99cd
+0,       2634,       2634,        0,   460800, 0xe107a349
+0,       2760,       2760,        0,   460800, 0xa21ea48d
+0,       2843,       2843,        0,   460800, 0x8b999a82
+0,       3052,       3052,        0,   460800, 0x0a699fce
+0,       3136,       3136,        0,   460800, 0x90159aa9
+0,       3219,       3219,        0,   460800, 0x081e9a19
+0,       3303,       3303,        0,   460800, 0x4019e4c2
+0,       3428,       3428,        0,   460800, 0x18a9ad97
+0,       3554,       3554,        0,   460800, 0xb6fca8be
+0,       3637,       3637,        0,   460800, 0xbe9caa28
+0,       3763,       3763,        0,   460800, 0x2dd5b1ca
+0,       3847,       3847,        0,   460800, 0x9102b475
+0,       3972,       3972,        0,   460800, 0x2eaebee1
+0,       4139,       4139,        0,   460800, 0x978ac4a2
+0,       4223,       4223,        0,   460800, 0x7bbec7be
+0,       4306,       4306,        0,   460800, 0x153da60f
+0,       4432,       4432,        0,   460800, 0xe41e7458
+0,       4557,       4557,        0,   460800, 0x2afb7349
+0,       4683,       4683,        0,   460800, 0x09da6e8b
+0,       4808,       4808,        0,   460800, 0x4998739f
+0,       4892,       4892,        0,   460800, 0x483a6f5f
+0,       5017,       5017,        0,   460800, 0x9c3d7233
+0,       5184,       5184,        0,   460800, 0xfb3174f6
+0,       5310,       5310,        0,   460800, 0x772270a1
+0,       5393,       5393,        0,   460800, 0xdec08dbd
+0,       5519,       5519,        0,   460800, 0xe4f95d65
+0,       5644,       5644,        0,   460800, 0x367b6506
+0,       5770,       5770,        0,   460800, 0x41fd6e1e
+0,       5895,       5895,        0,   460800, 0x2a657636
+0,       5979,       5979,        0,   460800, 0x10557c29
+0,       6062,       6062,        0,   460800, 0x90c28606
+0,       6188,       6188,        0,   460800, 0x1f548dc1
+0,       6313,       6313,        0,   460800, 0x4242946d
+0,       6397,       6397,        0,   460800, 0x4548c4e7
+0,       6480,       6480,        0,   460800, 0x688e9253
+0,       6731,       6731,        0,   460800, 0x491d9826
+0,       6815,       6815,        0,   460800, 0xd27a8dd6
+0,       6940,       6940,        0,   460800, 0x7c08931e
+0,       7024,       7024,        0,   460800, 0x1c6f91b0
+0,       7149,       7149,        0,   460800, 0xef7c972b
+0,       7233,       7233,        0,   460800, 0x52fa9c47
+0,       7358,       7358,        0,   460800, 0x87ef9b91
+0,       7484,       7484,        0,   460800, 0x5e7cd359
+0,       7567,       7567,        0,   460800, 0xbce89dc6
+0,       7818,       7818,        0,   460800, 0x8cf1aabb
+0,       7944,       7944,        0,   460800, 0x3d36ace4
+0,       8027,       8027,        0,   460800, 0x4b68ace0
+0,       8153,       8153,        0,   460800, 0x9b3eb493
+0,       8236,       8236,        0,   460800, 0xe2e0b16c
+0,       8320,       8320,        0,   460800, 0x655eb3a2
+0,       8445,       8445,        0,   460800, 0x8765ba35
+0,       8571,       8571,        0,   460800, 0x8a79efb8
+0,       8654,       8654,        0,   460800, 0xc3dcb7e3
+0,       8821,       8821,        0,   460800, 0x0487bd2f
+0,       8905,       8905,        0,   460800, 0x6ee0b6a4
+0,       9031,       9031,        0,   460800, 0x887fbb52
+0,       9156,       9156,        0,   460800, 0x28cdbbc1
+0,       9240,       9240,        0,   460800, 0x9326afdf
+0,       9323,       9323,        0,   460800, 0x8dc6ac3a
+0,       9449,       9449,        0,   460800, 0xde1aa989
+0,       9532,       9532,        0,   460800, 0x3ad27fe2
+0,       9658,       9658,        0,   460800, 0x27415120
+0,       9783,       9783,        0,   460800, 0x218a5449
+0,       9908,       9908,        0,   460800, 0xbd3e53ac
+0,       9992,       9992,        0,   460800, 0xb4af5814
+0,      10117,      10117,        0,   460800, 0x73215a5c
+0,      10201,      10201,        0,   460800, 0xdcd65790
+0,      10327,      10327,        0,   460800, 0x6b6a5c3b
+0,      10410,      10410,        0,   460800, 0xa4ff5b94
+0,      10536,      10536,        0,   460800, 0xfa815ce6
+0,      10661,      10661,        0,   460800, 0x949db095
+0,      10745,      10745,        0,   460800, 0xb3666da0
+0,      10954,      10954,        0,   460800, 0x191b7782
+0,      11079,      11079,        0,   460800, 0x11607f93
+0,      11163,      11163,        0,   460800, 0x15517a14
+0,      11288,      11288,        0,   460800, 0x9f79741b
+0,      11372,      11372,        0,   460800, 0xd9e778d5
+0,      11497,      11497,        0,   460800, 0x3a527ac8
+0,      11581,      11581,        0,   460800, 0xfec17990
+0,      11748,      11748,        0,   460800, 0x7e8612bd
+0,      11832,      11832,        0,   460800, 0x5725c689
+0,      12082,      12082,        0,   460800, 0x4966bc08
+0,      12208,      12208,        0,   460800, 0xc06cbf00
+0,      12333,      12333,        0,   460800, 0xa943bd78
+0,      12334,      12334,        0,   460800, 0xe7abb59a
-- 
2.0.1



More information about the libav-devel mailing list