[libav-commits] fate: add BMP tests.

Ronald S. Bultje git at libav.org
Wed Apr 4 20:27:05 CEST 2012


Module: libav
Branch: master
Commit: 7756859a313497c3cfb33ab2bd3feb168c55d917

Author:    Ronald S. Bultje <rsbultje at gmail.com>
Committer: Ronald S. Bultje <rsbultje at gmail.com>
Date:      Wed Apr  4 11:16:23 2012 -0700

fate: add BMP tests.

---

 tests/Makefile                |    1 +
 tests/fate/bmp.mak            |   41 +++++++++++++++++++++++++++++++++++++++++
 tests/ref/fate/bmp-15bit      |    2 ++
 tests/ref/fate/bmp-15bit-mask |    2 ++
 tests/ref/fate/bmp-16bit-mask |    2 ++
 tests/ref/fate/bmp-1bit       |    2 ++
 tests/ref/fate/bmp-24bit      |    2 ++
 tests/ref/fate/bmp-32bit      |    2 ++
 tests/ref/fate/bmp-32bit-mask |    2 ++
 tests/ref/fate/bmp-4bit       |    2 ++
 tests/ref/fate/bmp-4bit-os2   |    2 ++
 tests/ref/fate/bmp-8bit       |    2 ++
 tests/ref/fate/bmp-8bit-os2   |    2 ++
 tests/ref/fate/bmp-rle4       |    2 ++
 tests/ref/fate/bmp-rle8       |    2 ++
 15 files changed, 68 insertions(+), 0 deletions(-)

diff --git a/tests/Makefile b/tests/Makefile
index 4c21a6a..52a9fa3 100644
--- a/tests/Makefile
+++ b/tests/Makefile
@@ -29,6 +29,7 @@ include $(SRC_PATH)/tests/fate/amrnb.mak
 include $(SRC_PATH)/tests/fate/amrwb.mak
 include $(SRC_PATH)/tests/fate/atrac.mak
 include $(SRC_PATH)/tests/fate/audio.mak
+include $(SRC_PATH)/tests/fate/bmp.mak
 include $(SRC_PATH)/tests/fate/cdxl.mak
 include $(SRC_PATH)/tests/fate/dct.mak
 include $(SRC_PATH)/tests/fate/demux.mak
diff --git a/tests/fate/bmp.mak b/tests/fate/bmp.mak
new file mode 100644
index 0000000..56b5059
--- /dev/null
+++ b/tests/fate/bmp.mak
@@ -0,0 +1,41 @@
+FATE_BMP += fate-bmp-1bit
+fate-bmp-1bit: CMD = framecrc -i $(SAMPLES)/bmp/test1.bmp -pix_fmt rgb24
+
+FATE_BMP += fate-bmp-4bit
+fate-bmp-4bit: CMD = framecrc -i $(SAMPLES)/bmp/test4.bmp -pix_fmt rgb24
+
+FATE_BMP += fate-bmp-4bit-os2
+fate-bmp-4bit-os2: CMD = framecrc -i $(SAMPLES)/bmp/test4os2v2.bmp -pix_fmt rgb24
+
+FATE_BMP += fate-bmp-8bit
+fate-bmp-8bit: CMD = framecrc -i $(SAMPLES)/bmp/test8.bmp -pix_fmt rgb24
+
+FATE_BMP += fate-bmp-8bit-os2
+fate-bmp-8bit-os2: CMD = framecrc -i $(SAMPLES)/bmp/test8os2.bmp -pix_fmt rgb24
+
+FATE_BMP += fate-bmp-15bit
+fate-bmp-15bit: CMD = framecrc -i $(SAMPLES)/bmp/test16.bmp -pix_fmt rgb555le
+
+FATE_BMP += fate-bmp-15bit-mask
+fate-bmp-15bit-mask: CMD = framecrc -i $(SAMPLES)/bmp/test16bf555.bmp -pix_fmt rgb555le
+
+FATE_BMP += fate-bmp-16bit-mask
+fate-bmp-16bit-mask: CMD = framecrc -i $(SAMPLES)/bmp/test16bf565.bmp -pix_fmt rgb565le
+
+FATE_BMP += fate-bmp-24bit
+fate-bmp-24bit: CMD = framecrc -i $(SAMPLES)/bmp/test24.bmp
+
+FATE_BMP += fate-bmp-32bit
+fate-bmp-32bit: CMD = framecrc -i $(SAMPLES)/bmp/test32.bmp -pix_fmt bgr24
+
+FATE_BMP += fate-bmp-32bit-mask
+fate-bmp-32bit-mask: CMD = framecrc -i $(SAMPLES)/bmp/test32bf.bmp -pix_fmt bgr24
+
+FATE_BMP += fate-bmp-rle4
+fate-bmp-rle4: CMD = framecrc -i $(SAMPLES)/bmp/testcompress4.bmp -pix_fmt rgb24
+
+FATE_BMP += fate-bmp-rle8
+fate-bmp-rle8: CMD = framecrc -i $(SAMPLES)/bmp/testcompress8.bmp -pix_fmt rgb24
+
+FATE_TESTS += $(FATE_BMP)
+fate-bmp: $(FATE_BMP)
diff --git a/tests/ref/fate/bmp-15bit b/tests/ref/fate/bmp-15bit
new file mode 100644
index 0000000..a0f3bbf
--- /dev/null
+++ b/tests/ref/fate/bmp-15bit
@@ -0,0 +1,2 @@
+#tb 0: 1/25
+0,          0,          0,        1,    16256, 0xdbcf881d
diff --git a/tests/ref/fate/bmp-15bit-mask b/tests/ref/fate/bmp-15bit-mask
new file mode 100644
index 0000000..a0f3bbf
--- /dev/null
+++ b/tests/ref/fate/bmp-15bit-mask
@@ -0,0 +1,2 @@
+#tb 0: 1/25
+0,          0,          0,        1,    16256, 0xdbcf881d
diff --git a/tests/ref/fate/bmp-16bit-mask b/tests/ref/fate/bmp-16bit-mask
new file mode 100644
index 0000000..afa5ab4
--- /dev/null
+++ b/tests/ref/fate/bmp-16bit-mask
@@ -0,0 +1,2 @@
+#tb 0: 1/25
+0,          0,          0,        1,    16256, 0x44675948
diff --git a/tests/ref/fate/bmp-1bit b/tests/ref/fate/bmp-1bit
new file mode 100644
index 0000000..1c825b1
--- /dev/null
+++ b/tests/ref/fate/bmp-1bit
@@ -0,0 +1,2 @@
+#tb 0: 1/25
+0,          0,          0,        1,    24384, 0x4c968301
diff --git a/tests/ref/fate/bmp-24bit b/tests/ref/fate/bmp-24bit
new file mode 100644
index 0000000..8f1a615
--- /dev/null
+++ b/tests/ref/fate/bmp-24bit
@@ -0,0 +1,2 @@
+#tb 0: 1/25
+0,          0,          0,        1,    24384, 0x325dd8d9
diff --git a/tests/ref/fate/bmp-32bit b/tests/ref/fate/bmp-32bit
new file mode 100644
index 0000000..8f1a615
--- /dev/null
+++ b/tests/ref/fate/bmp-32bit
@@ -0,0 +1,2 @@
+#tb 0: 1/25
+0,          0,          0,        1,    24384, 0x325dd8d9
diff --git a/tests/ref/fate/bmp-32bit-mask b/tests/ref/fate/bmp-32bit-mask
new file mode 100644
index 0000000..8f1a615
--- /dev/null
+++ b/tests/ref/fate/bmp-32bit-mask
@@ -0,0 +1,2 @@
+#tb 0: 1/25
+0,          0,          0,        1,    24384, 0x325dd8d9
diff --git a/tests/ref/fate/bmp-4bit b/tests/ref/fate/bmp-4bit
new file mode 100644
index 0000000..c0eedf1
--- /dev/null
+++ b/tests/ref/fate/bmp-4bit
@@ -0,0 +1,2 @@
+#tb 0: 1/25
+0,          0,          0,        1,    24384, 0x322d81f4
diff --git a/tests/ref/fate/bmp-4bit-os2 b/tests/ref/fate/bmp-4bit-os2
new file mode 100644
index 0000000..8a5f658
--- /dev/null
+++ b/tests/ref/fate/bmp-4bit-os2
@@ -0,0 +1,2 @@
+#tb 0: 1/25
+0,          0,          0,        1,    19800, 0x563b599a
diff --git a/tests/ref/fate/bmp-8bit b/tests/ref/fate/bmp-8bit
new file mode 100644
index 0000000..887113c
--- /dev/null
+++ b/tests/ref/fate/bmp-8bit
@@ -0,0 +1,2 @@
+#tb 0: 1/25
+0,          0,          0,        1,    24384, 0xa7aa6b9b
diff --git a/tests/ref/fate/bmp-8bit-os2 b/tests/ref/fate/bmp-8bit-os2
new file mode 100644
index 0000000..887113c
--- /dev/null
+++ b/tests/ref/fate/bmp-8bit-os2
@@ -0,0 +1,2 @@
+#tb 0: 1/25
+0,          0,          0,        1,    24384, 0xa7aa6b9b
diff --git a/tests/ref/fate/bmp-rle4 b/tests/ref/fate/bmp-rle4
new file mode 100644
index 0000000..c0eedf1
--- /dev/null
+++ b/tests/ref/fate/bmp-rle4
@@ -0,0 +1,2 @@
+#tb 0: 1/25
+0,          0,          0,        1,    24384, 0x322d81f4
diff --git a/tests/ref/fate/bmp-rle8 b/tests/ref/fate/bmp-rle8
new file mode 100644
index 0000000..887113c
--- /dev/null
+++ b/tests/ref/fate/bmp-rle8
@@ -0,0 +1,2 @@
+#tb 0: 1/25
+0,          0,          0,        1,    24384, 0xa7aa6b9b



More information about the libav-commits mailing list