[libav-bugs] [Bug 571] Can't transcode mpc audio file

bugzilla at libav.org bugzilla at libav.org
Tue May 2 01:04:14 CEST 2017


https://bugzilla.libav.org/show_bug.cgi?id=571

--- Comment #1 from Sean McGovern <gseanmcg at gmail.com> ---
Confirming this issue still occurs on Git HEAD.

avconv version v13_dev0-1107-g81a4cb8, Copyright (c) 2000-2017 the Libav
developers
  built on May  1 2017 17:43:20 with gcc 5.4.0 (Ubuntu 5.4.0-6ubuntu1~16.04.4)
20160609
Input #0, mpc, from '/build/libav/bz571/AUD-5C.mpc':
  Duration: 00:00:45.00, start: 0.000000, bitrate: 94 kb/s
    Stream #0:0: Audio: musepack7
      48000 Hz, stereo, s16p
Stream mapping:
  Stream #0:0 -> #0:0 (musepack7 (mpc7) -> aac (native))
Press ctrl-c to stop encoding
Output #0, mp4, to '/tmp/test.m4a':
  Metadata:
    encoder         : Lavf58.0.0
    Stream #0:0: Audio: aac [[64][0][0][0] / 0x0040]
      32000 Hz, stereo, fltp, 64 kb/s
    Metadata:
      encoder         : Lavc58.3.1 aac
[mpc7 @ 0x2953860] Error decoding frame: used 3008 of 1856 bits
Error while decoding stream #0:0
[mpc7 @ 0x2953860] Error decoding frame: used 2667 of 1856 bits
Error while decoding stream #0:0
[mpc7 @ 0x2953860] Error decoding frame: used 2251 of 2016 bits
Error while decoding stream #0:0

<.. snipped for brevity ..>

-- 
You are receiving this mail because:
You are watching all bug changes.
-------------- next part --------------
An HTML attachment was scrubbed...
URL: <http://lists.libav.org/pipermail/libav-bugs/attachments/20170501/eebbfd51/attachment.html>


More information about the libav-bugs mailing list