[libav-bugs] [Bug 1025] Cannot play with libav.

bugzilla at libav.org bugzilla at libav.org
Tue Jan 31 18:39:40 CET 2017


https://bugzilla.libav.org/show_bug.cgi?id=1025

Diego Biurrun <diego at biurrun.de> changed:

           What    |Removed                     |Added
----------------------------------------------------------------------------
                 OS|Windows                     |All
          Component|general                     |libavcodec
           Severity|enhancement                 |normal

--- Comment #2 from Diego Biurrun <diego at biurrun.de> ---
confirmed. Here's what avprobe says:

avprobe version v13_dev0-781-gc64056e, Copyright (c) 2007-2017 the Libav
developers
  built on Jan 31 2017 18:15:14 with gcc 4.9.2 (Debian 4.9.2-10)
Input #0, matroska,webm, from '/home/diego/samples/handbrakeproblemvideo.mkv':
  Duration: 00:00:44.76, start: 0.000000, bitrate: N/A
    Stream #0:0: Video: h264 (Constrained Baseline)
      yuv420p, 568x320 [PAR 1:1 DAR 71:40], PAR 1:1 DAR 71:40
      23.81 fps, 1k tbn (default)
    Metadata:
      BPS             : 504534
      BPS-eng         : 504534
      DURATION        : 00:00:44.750000000
      DURATION-eng    : 00:00:44.750000000
      NUMBER_OF_FRAMES: 1074
      NUMBER_OF_FRAMES-eng: 1074
      NUMBER_OF_BYTES : 2822242
      NUMBER_OF_BYTES-eng: 2822242
      _STATISTICS_WRITING_APP: mkvmerge v9.5.0 ('Quiet Fire') 64bit
      _STATISTICS_WRITING_APP-eng: mkvmerge v9.5.0 ('Quiet Fire') 64bit
      _STATISTICS_WRITING_DATE_UTC: 2017-01-02 03:57:48
      _STATISTICS_WRITING_DATE_UTC-eng: 2017-01-02 03:57:48
      _STATISTICS_TAGS: BPS DURATION NUMBER_OF_FRAMES NUMBER_OF_BYTES
      _STATISTICS_TAGS-eng: BPS DURATION NUMBER_OF_FRAMES NUMBER_OF_BYTES
    Stream #0:1: Audio: aac (LC)
      48000 Hz, stereo, fltp (default)
    Metadata:
      BPS             : 63996
      BPS-eng         : 63996
      DURATION        : 00:00:44.757000000
      DURATION-eng    : 00:00:44.757000000
      NUMBER_OF_FRAMES: 2098
      NUMBER_OF_FRAMES-eng: 2098
      NUMBER_OF_BYTES : 358035
      NUMBER_OF_BYTES-eng: 358035
      _STATISTICS_WRITING_APP: mkvmerge v9.5.0 ('Quiet Fire') 64bit
      _STATISTICS_WRITING_APP-eng: mkvmerge v9.5.0 ('Quiet Fire') 64bit
      _STATISTICS_WRITING_DATE_UTC: 2017-01-02 03:57:48
      _STATISTICS_WRITING_DATE_UTC-eng: 2017-01-02 03:57:48
      _STATISTICS_TAGS: BPS DURATION NUMBER_OF_FRAMES NUMBER_OF_BYTES
      _STATISTICS_TAGS-eng: BPS DURATION NUMBER_OF_FRAMES NUMBER_OF_BYTES
# avprobe output

-- 
You are receiving this mail because:
You are watching all bug changes.
-------------- next part --------------
An HTML attachment was scrubbed...
URL: <http://lists.libav.org/pipermail/libav-bugs/attachments/20170131/639eb2a6/attachment.html>


More information about the libav-bugs mailing list