[libav-bugs] [Bug 966] New: H.264 in AVI decoding error splitting NAL units

bugzilla at libav.org bugzilla at libav.org
Mon Sep 26 03:38:39 CEST 2016


https://bugzilla.libav.org/show_bug.cgi?id=966

            Bug ID: 966
           Summary: H.264 in AVI decoding error splitting NAL units
           Product: Libav
           Version: git HEAD
          Hardware: X86
                OS: Mac OS
            Status: NEW
          Severity: normal
          Priority: ---
         Component: libavcodec
          Assignee: bugzilla at libav.org
          Reporter: bradley at bradleysepos.com

See sample on FTP server, 'h264-error-splitting-nal-units'. Complete source is
available if needed (128.2 MB).

$ avconv -i h264-error-splitting-nal-units-full.avi
avconv version v12_dev0-3209-g70de2ea, Copyright (c) 2000-2016 the Libav
developers
  built on Sep 25 2016 21:11:43 with Apple LLVM version 7.0.2 (clang-700.1.81)
[h264 @ 0x7fdba2806000] Invalid NAL unit size (1677732524 > 100170).
[h264 @ 0x7fdba2806000] Error splitting the input into NAL units.
    Last message repeated 37 times
[h264 @ 0x7fdba2806000] Invalid NAL unit size (100779136 > 14162).
[h264 @ 0x7fdba2806000] Error splitting the input into NAL units.
    Last message repeated 171 times
[h264 @ 0x7fdba2806000] Invalid NAL unit size (100779136 > 35915).
[h264 @ 0x7fdba2806000] Error splitting the input into NAL units.
    Last message repeated 89 times
[h264 @ 0x7fdba2806000] Invalid NAL unit size (1677732524 > 46404).
[h264 @ 0x7fdba2806000] Error splitting the input into NAL units.
    Last message repeated 1 times
[avi @ 0x7fdba2806a00] max_analyze_duration 5000000 reached
Input #0, avi, from 'h264-error-splitting-nal-units-full.avi':
  Metadata:
    encoder         : Lavf54.29.104
  Duration: 00:03:46.51, start: 0.000000, bitrate: 4528 kb/s
    Stream #0:0: Video: h264 (High) [H264 / 0x34363248]
      none, 1920x1080, PAR 1:1 DAR 16:9
      59.94 fps, 119.88 tbn
    Stream #0:1: Audio: aac (LC) [[255][0][0][0] / 0x00FF]
      44100 Hz, stereo, fltp, 125 kb/s
At least one output file must be specified

-- 
You are receiving this mail because:
You are watching all bug changes.
-------------- next part --------------
An HTML attachment was scrubbed...
URL: <http://lists.libav.org/pipermail/libav-bugs/attachments/20160926/dbeecced/attachment.html>


More information about the libav-bugs mailing list