[libav-bugs] [Bug 884] New: jpeg2000: CDxy values 2 1 for component 1 is not implemented

bugzilla at libav.org bugzilla at libav.org
Fri Sep 4 14:38:24 CEST 2015


https://bugzilla.libav.org/show_bug.cgi?id=884

            Bug ID: 884
           Summary: jpeg2000: CDxy values 2 1 for component 1 is not
                    implemented
           Product: Libav
           Version: git HEAD
          Hardware: All
                OS: All
            Status: NEW
          Severity: normal
          Priority: ---
         Component: libavcodec
          Assignee: bugzilla at libav.org
          Reporter: vitto.giova at yahoo.it

Sample uploaded to <ftp>/jpeg2000/avj2-cdxynotimplemented.mov

--------------------------------------

avplay version v12_dev0-1805-gd830b85, Copyright (c) 2003-2015 the Libav
developers
  built on Sep  4 2015 14:34:21 with clang version 3.6.1
(tags/RELEASE_361/final)
[jpeg2000 @ 0x7ff4bd810a00] CDxy values 2 1 for component 1 is not implemented.
Update your Libav version to the newest one from Git. If the problem still
occurs, it means that your file has a feature which has not been implemented.
[jpeg2000 @ 0x7ff4bd810a00] If you want to help, upload a sample of this file
to ftp://upload.libav.org/incoming/ and contact the libav-devel mailing list.
[jpeg2000 @ 0x7ff4bd810a00] error during processing marker segment ff51
[jpeg2000 @ 0x7ff4bd810a00] CDxy values 2 1 for component 1 is not implemented.
Update your Libav version to the newest one from Git. If the problem still
occurs, it means that your file has a feature which has not been implemented.
[jpeg2000 @ 0x7ff4bd810a00] If you want to help, upload a sample of this file
to ftp://upload.libav.org/incoming/ and contact the libav-devel mailing list.
[jpeg2000 @ 0x7ff4bd810a00] error during processing marker segment ff51
[mov,mp4,m4a,3gp,3g2,mj2 @ 0x7ff4be011a00] Could not find codec parameters
(Video: jpeg2000 (JPEG 2000 codestream restriction 0) [AVj2 / 0x326A5641]
      none, 1920x1080, 61844 kb/s)
[mov,mp4,m4a,3gp,3g2,mj2 @ 0x7ff4be011a00] Could not find codec parameters
(Data: tmcd / 0x64636D74, 0 kb/s)
Input #0, mov,mp4,m4a,3gp,3g2,mj2, from './avj2-cdxynotimplemented.mov':
  Metadata:
    major_brand     : qt  
    minor_version   : 537199360
    compatible_brands: qt  
    creation_time   : 2013-08-08 16:22:27
  Duration: 00:00:00.08, start: 0.000000, bitrate: 63601 kb/s
    Stream #0:0(eng): Video: jpeg2000 (JPEG 2000 codestream restriction 0)
[AVj2 / 0x326A5641]
      none, 1920x1080, 61844 kb/s
      25k tbn (default)
    Metadata:
      creation_time   : 2013-08-08 16:22:27
      handler_name    : Apple Alias Data Handler
      encoder         : Unknown
    Stream #0:1(eng): Audio: pcm_s16be [twos / 0x736F7774]
      48000 Hz, stereo, s16, 1536 kb/s (default)
    Metadata:
      creation_time   : 2013-08-08 16:22:27
      handler_name    : Apple Alias Data Handler
    Stream #0:2(eng): Data: tmcd / 0x64636D74, 0 kb/s (default)
    Metadata:
      creation_time   : 2013-08-08 16:22:27
      handler_name    : Apple Alias Data Handler
[buffer @ 0x7ff4bd027d00] Invalid pixel format string '-1'
   0.08 A-V:-1441521264.509 s:0.0 aq=    0KB vq=  610KB sq=    0B f=0/0

-- 
You are receiving this mail because:
You are watching all bug changes.
-------------- next part --------------
An HTML attachment was scrubbed...
URL: <http://lists.libav.org/pipermail/libav-bugs/attachments/20150904/3abde664/attachment.html>


More information about the libav-bugs mailing list