[libav-bugs] [Bug 559] fate-xmv-demux fails when using suncc with asm disabled

bugzilla at libav.org bugzilla at libav.org
Thu Jul 30 16:15:09 CEST 2015


https://bugzilla.libav.org/show_bug.cgi?id=559

--- Comment #4 from Sean McGovern <gseanmcg at gmail.com> ---
The output from the test suggests maybe an over-read is occurring:

avconv version v12_dev0-1692-g0c73a5a, Copyright (c) 2000-2015 the Libav
developers
  built on Jul 30 2015 05:46:16 with Sun C 5.12 SunOS_i386 2011/11/16
Guessed Channel Layout for  Input Stream #0.1 : stereo
Input #0, xmv, from '/var/lib/fate/fate-suite/xmv/logos1p.fmv':
  Duration: 00:00:12.33, start: 0.000000, bitrate: 637 kb/s
    Stream #0:0: Video: wmv2 [2VMW / 0x574D5632]
      yuv420p, 640x480
      9.25 fps, 1k tbn
    Stream #0:1: Audio: adpcm_ima_wav [i[0][0][0] / 0x0069]
      44100 Hz, 2 channels, s16p, 352 kb/s
Output #0, framecrc, to 'pipe:':
  Metadata:
    encoder         : Lavf56.21.0
    Stream #0:0: Video: wmv2 [2VMW / 0x574D5632]
      yuv420p, 640x480, q=2-31
      1k tbn, 1k tbc
    Stream #0:1: Audio: adpcm_ima_wav [i[0][0][0] / 0x0069]
      44100 Hz, stereo, 352 kb/s
Stream mapping:
  Stream #0:0 -> #0:0 (copy)
  Stream #0:1 -> #0:1 (copy)
Press ctrl-c to stop encoding
/var/lib/fate/fate-suite/xmv/logos1p.fmv: I/O error
frame=   90 fps=  0 q=-1.0 Lsize=      10kB time=8.44 bitrate=  10.0kbits/s    
video:528kB audio:411kB other streams:0kB global headers:0kB muxing overhead:
unknown

-- 
You are receiving this mail because:
You are watching all bug changes.
-------------- next part --------------
An HTML attachment was scrubbed...
URL: <http://lists.libav.org/pipermail/libav-bugs/attachments/20150730/c1b6495f/attachment.html>


More information about the libav-bugs mailing list