[libav-bugs] [Bug 879] New: avconv fails to process DV-AVI input files bigger than 1 GB.

bugzilla at libav.org bugzilla at libav.org
Mon Aug 10 14:49:40 CEST 2015


https://bugzilla.libav.org/show_bug.cgi?id=879

            Bug ID: 879
           Summary: avconv fails to process DV-AVI input files bigger than
                    1 GB.
           Product: Libav
           Version: 11
          Hardware: X86
                OS: Windows
            Status: NEW
          Severity: blocker
          Priority: ---
         Component: general
          Assignee: bugzilla at libav.org
          Reporter: iulians_nero at outlook.be

Created attachment 548
  --> https://bugzilla.libav.org/attachment.cgi?id=548&action=edit
avconv log

I am using avconv (libav-11.3-win64) to convert my DV videos. 

The problem is that I don't get the full length video
in the output file. The length of input file is 06:30 min, but that of
output file is only 4:57 min (7426 frames). 
There is no problem of space on my disk (110.710.976.512 bytes free). 
I've tried with multiple input files, of various length (> 06:00) and the
output file always stops at 4:57 min. 
I've tried also different output codecs (dvvideo, x264) but the output file
always stops at 4:57 min.

Here is a simple example converting from dv-avi to dv-raw using the native
dvvideo codec:

avconv  -v 9 -loglevel 99 -i DV-AVI-TYPE1.avi -target pal-dv DV-DIF.dv

Input #0, avi, from 'DV-AVI-TYPE1.avi':
  Duration: 00:06:30.00, start: 0.000000, bitrate: N/A
    Stream #0.0, 1, 1/25: Video: dvvideo, yuv420p, 720x576, 0/1, 28800 kb/s,
PAR 16:15 DAR 4:3, 25 fps, 25 tbn
    Stream #0.1, 1, 1/30000: Audio: pcm_s16le, 48000 Hz, stereo, s16, 1536 kb/s

...

No more output streams to write to, finishing.
frame= 7426 fps=123 q=0.0 Lsize= 1044141kB time=297.00 bitrate=28800.1kbits/s   

video:1044281kB audio:55695kB other streams:0kB global headers:0kB muxing
overhead: unknown
Input file #0 (DV-AVI-TYPE1.avi):
  Input stream #0:0 (video): 7427 packets read (1069344000 bytes); 7426 frames
decoded; 
  Input stream #0:1 (audio): 7426 packets read (57031528 bytes); 7426 frames
decoded (14257882 samples); 
  Total: 14853 packets (1126375528 bytes) demuxed
Output file #0 (DV-DIF.dv):
  Output stream #0:0 (video): 7426 frames encoded; 7426 packets muxed
(1069344000 bytes); 
  Output stream #0:1 (audio): 7426 frames encoded (14257882 samples); 7426
packets muxed (57031528 bytes); 
  Total: 14852 packets (1126375528 bytes) muxed
[fps @ 0076a260] 7426 frames in, 7426 frames out; 0 frames dropped, 0 frames
duplicated.

For more info see attached log files.

-- 
You are receiving this mail because:
You are watching all bug changes.
-------------- next part --------------
An HTML attachment was scrubbed...
URL: <http://lists.libav.org/pipermail/libav-bugs/attachments/20150810/284e0e52/attachment.html>


More information about the libav-bugs mailing list