[libav-bugs] [Bug 659] New: I cant start avserver by Segmentation fault

bugzilla at libav.org bugzilla at libav.org
Fri Mar 21 02:27:35 CET 2014


https://bugzilla.libav.org/show_bug.cgi?id=659

           Summary: I cant start avserver by Segmentation fault
           Product: Libav
           Version: git HEAD
          Platform: X86
        OS/Version: Linux
            Status: NEW
          Severity: blocker
          Priority: Normal
         Component: general
        AssignedTo: bugzilla at libav.org
        ReportedBy: axoquen at gmail.com


Created attachment 471
  --> https://bugzilla.libav.org/attachment.cgi?id=471
gdb output

i use the server config file example included in the installation, with a mpg
file, this is avprobe output

avprobe version 10_beta2, Copyright (c) 2007-2014 the Libav developers
  built on Mar 20 2014 14:04:12 with gcc 4.4.7 (GCC) 20120313 (Red Hat 4.4.7-4)
Input #0, mpeg, from 'prueba.mpg':
  Duration: 00:05:34.84, start: 0.523344, bitrate: 2749 kb/s
    Stream #0.0[0x1e0]: Video: mpeg1video, yuv420p, 1920x1080 [PAR 1:1 DAR
16:9], 104857 kb/s, 29.97 fps, 90k tbn, 29.97 tbc
    Stream #0.1[0x1c0]: Audio: mp2, 48000 Hz, 2 channels, s16p, 128 kb/s


debug info attached 

i hope it's useful information

thanks

(perdon por el mal ingles)

-- 
Configure bugmail: https://bugzilla.libav.org/userprefs.cgi?tab=email
------- You are receiving this mail because: -------
You are watching all bug changes.


More information about the libav-bugs mailing list