[libav-bugs] [Bug 476] New: avconv: [mp4] Application provided invalid, non monotonically increasing dts to muxer in stream \ av_interleaved_write_frame(): Invalid argument

bugzilla-daemon at aruru.libav.org bugzilla-daemon at aruru.libav.org
Sat Mar 16 05:06:31 CET 2013


https://bugzilla.libav.org/show_bug.cgi?id=476

           Summary: avconv: [mp4] Application provided invalid, non
                    monotonically increasing dts to muxer in stream \
                    av_interleaved_write_frame(): Invalid argument
           Product: Libav
           Version: 0.8
          Platform: X86
        OS/Version: Linux
            Status: NEW
          Severity: normal
          Priority: Normal
         Component: utilities
        AssignedTo: bugzilla at libav.org
        ReportedBy: bobbibmpn at mail.ru


avconv utility from the current Debian Wheezy/Sid Libav (version: 6:0.8.5-1;
architecture: amd64) fails to process some slightly damaged FLV file.
(Switching output from MP4 to FLV doesn't help either).

$ avconv -i test01.flv -codec copy test02.mp4
avconv version 0.8.5-6:0.8.5-1, Copyright (c) 2000-2012 the Libav developers
  built on Jan 13 2013 12:05:48 with gcc 4.7.2
[flv @ 0xb5e4c0] Estimating duration from bitrate, this may be inaccurate
Input #0, flv, from 'test02.flv':
  Duration: 00:02:54.77, start: 0.026000, bitrate: 47 kb/s
    Stream #0.0: Video: h264 (Main), yuv420p, 768x576 [PAR 1:1 DAR 4:3], 25
tbr, 1k tbn, 50 tbc
    Stream #0.1: Audio: mp3, 22050 Hz, mono, s16, 48 kb/s
Output #0, mp4, to 'test03.mp4':
  Metadata:
    encoder         : Lavf53.21.1
    Stream #0.0: Video: libx264, yuv420p, 768x576 [PAR 1:1 DAR 4:3], q=2-31, 1k
tbn, 1k tbc
    Stream #0.1: Audio: libmp3lame, 22050 Hz, mono, 48 kb/s
Stream mapping:
  Stream #0:0 -> #0:0 (copy)
  Stream #0:1 -> #0:1 (copy)
Press ctrl-c to stop encoding
[mp4 @ 0xb60bc0] Application provided invalid, non monotonically increasing dts
to muxer in stream 0: -26 >= -26
av_interleaved_write_frame(): Invalid argument

-- 
Configure bugmail: https://bugzilla.libav.org/userprefs.cgi?tab=email
------- You are receiving this mail because: -------
You are watching all bug changes.


More information about the libav-bugs mailing list