[libav-bugs] [Bug 258] avserver ignoring feed in configuration file and using default config.

bugzilla-daemon at aruru.libav.org bugzilla-daemon at aruru.libav.org
Tue Mar 20 16:32:51 CET 2012


https://bugzilla.libav.org/show_bug.cgi?id=258

--- Comment #1 from Sergio <sergiome at gmail.com> 2012-03-20 16:32:51 CET ---
I've tried switching the configuration file's feed description with one of the
examples defined within it, so as to bar the possibility I've somehow screwed
up on my feed definition, however, replacing the stream descriptor with:

<Stream test.ogg>
Feed feed1.ffm
Title "Stream title"
AudioBitRate 64
AudioChannels 2
AudioSampleRate 44100
NoVideo
</Stream>

... as provided on the default avserver.conf file does nothing, even when not
using the custom ./configure command I'm using.

$ avconv -v 9 -loglevel 99 -i ../ffmpeg-0.10/hello3.wav
http://127.0.0.1:8090/feed1.ffm
avconv version 0.8, Copyright (c) 2000-2011 the Libav developers
  built on Mar 20 2012 09:25:08 with gcc 4.5.2
  configuration: 
  libavutil    51. 21. 0 / 51. 21. 0
  libavcodec   53. 34. 0 / 53. 34. 0
  libavformat  53. 20. 0 / 53. 20. 0
  libavdevice  53.  2. 0 / 53.  2. 0
  libavfilter   2. 15. 0 /  2. 15. 0
  libswscale    2.  1. 0 /  2.  1. 0
[wav @ 0xa00da80] Probed with size=2048 and score=99
[pcm_s16le @ 0xa00f920] err{or,}_recognition separate: 1; 1
[pcm_s16le @ 0xa00f920] err{or,}_recognition combined: 1; 1
[wav @ 0xa00da80] max_analyze_duration reached
Input #0, wav, from '../ffmpeg-0.10/hello3.wav':
  Duration: 00:03:41.96, bitrate: 1411 kb/s
    Stream #0.0, 218, 1/44100: Audio: pcm_s16le, 44100 Hz, 2 channels, s16,
1411 kb/s
Tue Mar 20 09:30:06 2012 127.0.0.1 - - New connection: POST /feed1.ffm
[mp2 @ 0xa0784c0] err{or,}_recognition separate: 1; 1
[mp2 @ 0xa0784c0] err{or,}_recognition combined: 1; 1
[pcm_s16le @ 0xa00f920] err{or,}_recognition separate: 1; 1
[pcm_s16le @ 0xa00f920] err{or,}_recognition combined: 1; 1
Output #0, ffm, to 'http://127.0.0.1:8090/feed1.ffm':
  Metadata:
    encoder         : Lavf53.20.0
    Stream #0.0, 0, 1/1000000: Audio: mp2, 44100 Hz, 2 channels, s16, 128 kb/s
Stream mapping:
  Stream #0:0 -> #0:0 (pcm_s16le -> mp2)
Press ctrl-c to stop encoding
size=    3620kB time=221.96 bitrate= 133.6kbits/s    
video:0kB audio:3468kB global headers:0kB muxing overhead 4.378021%
Tue Mar 20 09:30:07 2012 127.0.0.1 - - [POST] "/feed1.ffm HTTP/1.1" 200 3706880

-- 
Configure bugmail: https://bugzilla.libav.org/userprefs.cgi?tab=email
------- You are receiving this mail because: -------
You are watching all bug changes.


More information about the libav-bugs mailing list