[libav-bugs] [Bug 255] New: Unrecognized stream in realmedia file

bugzilla-daemon at aruru.libav.org bugzilla-daemon at aruru.libav.org
Sat Mar 17 21:58:54 CET 2012


http://bugzilla.libav.org/show_bug.cgi?id=255

           Summary: Unrecognized stream in realmedia file
           Product: Libav
           Version: git HEAD
          Platform: All
        OS/Version: All
            Status: NEW
          Severity: minor
          Priority: Normal
         Component: libavformat
        AssignedTo: bugzilla at libav.org
        ReportedBy: derek.buitenhuis at gmail.com


Created attachment 294
  --> http://bugzilla.libav.org/attachment.cgi?id=294
Sample Input File

avconv:

avconv version v0.8-1007-gc95fefa, Copyright (c) 2000-2012 the Libav developers
  built on Mar 12 2012 04:33:33 with gcc 4.5.3
[NULL @ 0000000000529A80] Unsupported video codec
[rm @ 000000000069F800] max_analyze_duration reached
Input #0, rm, from 'b.rm':
  Metadata:
    title           :
    author          :
    copyright       : (C) 2002
    comment         :
  Duration: 01:27:35.13, start: 0.000000, bitrate: 0 kb/s
    Stream #0.0: Audio: cook, 22050 Hz, stereo, flt, 44 kb/s
    Stream #0.1: Video: rv40, yuv420p, 352x240, 304 kb/s, 29.97 fps, 29.97 tbr,
1k tbn
    Stream #0.2: Data: [0][0][0][0] / 0x0000
At least one output file must be specified

ffmpeg:

ffmpeg version N-38607-g57986c5 Copyright (c) 2000-2012 the FFmpeg developers
  built on Mar  6 2012 21:27:20 with gcc 4.6.2 (x86.generic.Komisar)
  configuration: --enable-gpl --enable-libutvideo
--extra-cflags=-I/devel/ut_x86
/include/ --extra-ldflags=-L/devel/ut_x86/lib/ --enable-memalign-hack
--enable-w
32threads --enable-runtime-cpudetect
  libavutil      51. 41.100 / 51. 41.100
  libavcodec     54. 10.100 / 54. 10.100
  libavformat    54.  2.100 / 54.  2.100
  libavdevice    53.  4.100 / 53.  4.100
  libavfilter     2. 63.100 /  2. 63.100
  libswscale      2.  1.100 /  2.  1.100
  libswresample   0.  7.100 /  0.  7.100
  libpostproc    52.  0.100 / 52.  0.100
[rm @ 01429360] Unsupported stream type 00000185
Input #0, rm, from 'b.rm':
  Metadata:
    title           :
    author          :
    copyright       : (C) 2002
    comment         :
  Duration: 01:27:35.13, start: 0.000000, bitrate: 0 kb/s
    Stream #0:0: Audio: cook (cook / 0x6B6F6F63), 22050 Hz, stereo, flt, 44
kb/s
    Stream #0:1: Video: rv40 (RV40 / 0x30345652), yuv420p, 352x240, 304 kb/s,
29
.97 fps, 29.97 tbr, 1k tbn, 1k tbc
    Stream #0:2: Data: none
At least one output file must be specified

-- 
Configure bugmail: http://bugzilla.libav.org/userprefs.cgi?tab=email
------- You are receiving this mail because: -------
You are watching all bug changes.


More information about the libav-bugs mailing list