[libav-bugs] [Bug 317] New: [RTMP] segfault when playing a stream from directv

bugzilla-daemon at aruru.libav.org bugzilla-daemon at aruru.libav.org
Sat Jun 16 13:56:05 CEST 2012


https://bugzilla.libav.org/show_bug.cgi?id=317

           Summary: [RTMP] segfault when playing a stream from directv
           Product: Libav
           Version: git HEAD
          Platform: All
        OS/Version: Linux
            Status: NEW
          Severity: major
          Priority: Normal
         Component: libavformat
        AssignedTo: bugzilla at libav.org
        ReportedBy: samuel.pitoiset at gmail.com


Hi,

$ ./avplay
rtmp://directv.fcod.llnwd.net/a517/d1/com/lp/testdrive/active_channel-hack.flv
avplay version v0.8-1995-gfbc5740, Copyright (c) 2003-2012 the Libav developers
  built on Jun 16 2012 13:46:20 with gcc 4.7.0 20120505 (prerelease)
Input #0, flv, from
'rtmp://directv.fcod.llnwd.net/a517/d1/com/lp/testdrive/active_channel-hack.flv':
  Metadata:
    audiodelay      : 0
    canSeekToEnd    : true
  Duration: 00:00:30.13, start: 0.000000, bitrate: N/A
    Stream #0.0: Video: vp6f, yuv420p, 380x228, 614 kb/s, 30 tbr, 1k tbn
    Stream #0.1: Audio: mp3, 44100 Hz, 2 channels, s16, 96 kb/s
[buffer @ 0x7fe480000c00] w:384 h:240 pixfmt:yuv420p
[buffer @ 0x7fe480001780] w:380 h:228 pixfmt:yuv420p
Segmentation fault47296.264 s:0.0 aq=   42KB vq=  224KB sq=    0B f=0/0

It works fine with rtmpdump.

-- 
Configure bugmail: https://bugzilla.libav.org/userprefs.cgi?tab=email
------- You are receiving this mail because: -------
You are watching all bug changes.


More information about the libav-bugs mailing list