[libav-bugs] [Bug 45] unable to transcode DVB subtitle to DVD subtitle

bugzilla-daemon at aruru.libav.org bugzilla-daemon at aruru.libav.org
Thu Feb 23 10:35:05 CET 2012


https://bugzilla.libav.org/show_bug.cgi?id=45

--- Comment #3 from lee_yiu_chung at yahoo.com 2012-02-23 10:35:05 CET ---
Sorry that I totally forgotten this after I am unable to login into
upload.libav.org...

The bug sample is uploaded to incoming/bug45.

I am now using win32 20120223 build this time.

avconv.exe -i test.ts -codec:v copy -codec:a copy -codec:s dvdsub test.mkv

And the output is:

avconv version v0.8-646-g62d5f9e, Copyright (c) 2000-2012 the Libav developers
  built on Feb 23 2012 02:28:05 with gcc 4.5.2
[h264 @ 0136f800] non-existing SPS 0 referenced in buffering period
[h264 @ 0136f800] non-existing PPS referenced
[h264 @ 0136f800] non-existing SPS 0 referenced in buffering period
[h264 @ 0136f800] non-existing PPS 0 referenced
[h264 @ 0136f800] decode_slice_header error
[h264 @ 0136f800] no frame!
[h264 @ 0136f800] non-existing SPS 0 referenced in buffering period
[h264 @ 0136f800] non-existing PPS referenced
[h264 @ 0136f800] non-existing SPS 0 referenced in buffering period
[h264 @ 0136f800] non-existing PPS 0 referenced
[h264 @ 0136f800] decode_slice_header error
[h264 @ 0136f800] no frame!
[mpegts @ 02ba18c0] max_analyze_duration reached
[mpegts @ 02ba18c0] PES packet size mismatch
    Last message repeated 1 times
Input #0, mpegts, from '..\..\..\..\a\2012-02-23_17-25-27_82 J2?起撌刻撌交.t
s':
  Duration: 00:00:09.30, start: 94298.140389, bitrate: 3967 kb/s
  Program 82
    Stream #0.0[0x335]: Video: h264 (High), yuv420p, 720x576 [PAR 16:11 DAR
20:1
1], 25.20 fps, 25 tbr, 90k tbn, 50 tbc
    Stream #0.1[0x336]: Audio: ac3, 48000 Hz, stereo, s16, 192 kb/s
    Stream #0.2[0x337]: Audio: ac3, 48000 Hz, stereo, s16, 192 kb/s
    Stream #0.3[0x339](CHI): Subtitle: dvbsub
Output #0, matroska, to 'test.mkv':
  Metadata:
    encoder         : Lavf54.1.0
    Stream #0.0: Video: libx264, yuv420p, 720x576 [PAR 16:11 DAR 20:11],
q=2-31,
 1k tbn, 90k tbc
    Stream #0.1: Audio: ac3, 48000 Hz, stereo, 192 kb/s
    Stream #0.2(CHI): Subtitle: dvdsub, 200 kb/s
Stream mapping:
  Stream #0:0 -> #0:0 (copy)
  Stream #0:1 -> #0:1 (copy)
  Stream #0:3 -> #0:2 (dvbsub -> dvdsub)
Press ctrl-c to stop encoding
Subtitle encoding failed

-- 
Configure bugmail: https://bugzilla.libav.org/userprefs.cgi?tab=email
------- You are receiving this mail because: -------
You are watching all bug changes.


More information about the libav-bugs mailing list