[libav-bugs] [Bug 402] flacdec: allow mid-stream channel layout change, issues

bugzilla-daemon at aruru.libav.org bugzilla-daemon at aruru.libav.org
Mon Dec 17 01:24:48 CET 2012


http://bugzilla.libav.org/show_bug.cgi?id=402

--- Comment #3 from Rodeo <tdskywalker at gmail.com> 2012-12-17 01:24:48 CET ---
Proposed patch fixes both issues.

-------------------------------------------------
avconv -i 30seconds.flac out.wav
avconv version v9_beta2-525-ge798085, Copyright (c) 2000-2012 the Libav
developers
  built on Dec 17 2012 01:18:09 with llvm-gcc 4.2.1 (LLVM build 2336.11.00)
[flac @ 0x7fab92006600] max_analyze_duration reached
Guessed Channel Layout for  Input Stream #0.0 : 7.1
Input #0, flac, from '30seconds.flac':
  Metadata:
    ENCODER         : Lavf54.20.0
  Duration: 00:00:30.00, bitrate: 1452 kb/s
    Stream #0.0: Audio: flac, 48000 Hz, 7.1, s16
Output #0, wav, to '/Users/tim/Desktop/out.wav':
  Metadata:
    ISFT            : Lavf54.20.0
    Stream #0.0: Audio: pcm_s16le, 48000 Hz, 7.1, s16, 6144 kb/s
Stream mapping:
  Stream #0:0 -> #0:0 (flac -> pcm_s16le)
Press ctrl-c to stop encoding
Guessed Channel Layout for  Input Stream #0.0 : 7.1
Input stream #0:0 frame changed from rate:48000 fmt:s16 ch:8 chl:7.1 to
rate:48000 fmt:s16 ch:8 chl:7.1
size=   22500kB time=30.00 bitrate=6144.0kbits/s    
video:0kB audio:22500kB global headers:0kB muxing overhead 0.000434%
-------------------------------------------------

Rodeo

-- 
Configure bugmail: http://bugzilla.libav.org/userprefs.cgi?tab=email
------- You are receiving this mail because: -------
You are watching all bug changes.


More information about the libav-bugs mailing list