[libav-bugs] [Bug 269] New: swscale: fix monob/monow output with odd width

bugzilla-daemon at aruru.libav.org bugzilla-daemon at aruru.libav.org
Tue Apr 3 12:21:29 CEST 2012


https://bugzilla.libav.org/show_bug.cgi?id=269

           Summary: swscale: fix monob/monow output with odd width
           Product: Libav
           Version: git HEAD
          Platform: All
        OS/Version: Linux
            Status: NEW
          Severity: enhancement
          Priority: Normal
         Component: libswscale
        AssignedTo: bugzilla at libav.org
        ReportedBy: ami_stuff at o2.pl


there is a vertical bar at the right side

C:\>avconv -i 599.png -pix_fmt monow out.tif
avconv version v0.8-1303-g0aaa45e, Copyright (c) 2000-2012 the Libav developers
  built on Apr  3 2012 02:27:37 with gcc 4.5.0 20100414 (Fedora MinGW
4.5.0-1.fc
14)
Input #0, image2, from '599.png':
  Duration: 00:00:00.04, start: 0.000000, bitrate: N/A
    Stream #0.0: Video: png, rgb24, 599x412, 25 tbn
[buffer @ 0x4421380] w:599 h:412 pixfmt:rgb24
[sink @ 0x4421580] auto-inserting filter 'auto-inserted scaler 0' between the
fi
lter 'src' and the filter 'out'
[scale @ 0x44218e0] w:599 h:412 fmt:rgb24 -> w:599 h:412 fmt:monow flags:0x4
Output #0, image2, to 'out.tif':
  Metadata:
    encoder         : Lavf54.2.0
    Stream #0.0: Video: tiff, monow, 599x412, q=2-31, 200 kb/s, 90k tbn, 25 tbc
Stream mapping:
  Stream #0:0 -> #0:0 (png -> tiff)
Press ctrl-c to stop encoding
frame=    1 fps=  0 q=0.0 Lsize=      -0kB time=0.04 bitrate=  -4.4kbits/s
video:2kB audio:0kB global headers:0kB muxing overhead -101.178992%

-- 
Configure bugmail: https://bugzilla.libav.org/userprefs.cgi?tab=email
------- You are receiving this mail because: -------
You are watching all bug changes.


More information about the libav-bugs mailing list