[libav-bugs] [Bug 268] New: wmalossless: support 24bit mode

bugzilla-daemon at aruru.libav.org bugzilla-daemon at aruru.libav.org
Tue Apr 3 12:20:04 CEST 2012


https://bugzilla.libav.org/show_bug.cgi?id=268

           Summary: wmalossless: support 24bit mode
           Product: Libav
           Version: git HEAD
          Platform: All
        OS/Version: Linux
            Status: NEW
          Severity: enhancement
          Priority: Normal
         Component: libavcodec
        AssignedTo: bugzilla at libav.org
        ReportedBy: ami_stuff at o2.pl


http://www.cccp-project.net/beta/test_files/%5bCCCP%5d_Mega_Weird_Audio_Test.mkv

C:\>avconv -i [CCCP]_Mega_Weird_Audio_Test.mkv -map 0:22 out.wav
avconv version v0.8-1303-g0aaa45e, Copyright (c) 2000-2012 the Libav developers
  built on Apr  3 2012 02:27:37 with gcc 4.5.0 20100414 (Fedora MinGW
4.5.0-1.fc
14)
[wmalossless @ 0x4999380] bit-depth higher than 16 not implemented. Update your
Libav version to the newest one from Git. If the problem still occurs, it means
that your file has a feature which has not been implemented.
[wmalossless @ 0x499ae20] bit-depth higher than 16 not implemented. Update your
Libav version to the newest one from Git. If the problem still occurs, it means
that your file has a feature which has not been implemented.
[mpeg4 @ 0x4419140] Invalid and inefficient vfw-avi packed B frames detected
[wmalossless @ 0x4999380] bit-depth higher than 16 not implemented. Update your
Libav version to the newest one from Git. If the problem still occurs, it means
that your file has a feature which has not been implemented.
[wmalossless @ 0x499ae20] bit-depth higher than 16 not implemented. Update your
Libav version to the newest one from Git. If the problem still occurs, it means
that your file has a feature which has not been implemented.
[matroska,webm @ 0x4418c60] Estimating duration from bitrate, this may be
inaccu
rate
Input #0, matroska,webm, from '[CCCP]_Mega_Weird_Audio_Test.mkv':
  Metadata:
    title           : Macross Plus - First Simulator Test
  Duration: 00:01:03.70, start: 0.000000, bitrate: 5050 kb/s
    Stream #0.0(eng): Video: mpeg4 (Advanced Simple Profile), yuv420p, 656x464
[
PAR 1:1 DAR 41:29], PAR 116:123 DAR 4:3, 23.98 fps, 1k tbn, 23.98 tbc (default)
    Metadata:
      title           : Macross Plus - First Simulator Test
    Stream #0.1(eng): Audio: ac3, 48000 Hz, 5.1, s16, 448 kb/s (default)
    Metadata:
      title           : AC3 6ch Audio
    Stream #0.2(jpn): Audio: ac3, 48000 Hz, stereo, s16, 192 kb/s
    Metadata:
      title           : AC3 2ch Audio
    Stream #0.3(eng): Audio: mp3, 48000 Hz, 2 channels, s16, 192 kb/s
    Metadata:
      title           : AudX HGHQ 6ch Audio
    Stream #0.4(eng): Audio: mp3, 48000 Hz, 1 channels, s16, 192 kb/s
    Metadata:
      title           : AudX SPBQ 6ch Audio
    Stream #0.5(jpn): Audio: sipr, 16000 Hz, 1 channels, flt, 16 kb/s
    Metadata:
      title           : ACELP Sipro Mono Audio
    Stream #0.6(jpn): Audio: adpcm_ms, 11025 Hz, 2 channels, s16, 88 kb/s
    Metadata:
      title           : MS ADPCM 2ch Audio
    Stream #0.7(jpn): Audio: adpcm_ima_wav, 11025 Hz, 2 channels, s16, 88 kb/s
    Metadata:
      title           : IMA ADPCM 2ch Audio
    Stream #0.8(jpn): Audio: adpcm_yamaha, 16000 Hz, 1 channels, s16, 64 kb/s
    Metadata:
      title           : Yamaha ADPCM Mono Audio
    Stream #0.9(jpn): Audio: g726, 8000 Hz, 1 channels, s16, 32 kb/s
    Metadata:
      title           : G.726 ADPCM Mono Audio
    Stream #0.10(jpn): Audio: pcm_mulaw, 8000 Hz, 2 channels, s16, 128 kb/s
    Metadata:
      title           : +--Law 2ch Audio
    Stream #0.11(jpn): Audio: pcm_alaw, 8000 Hz, 2 channels, s16, 128 kb/s
    Metadata:
      title           : A-Law 2ch Audio
    Stream #0.12(jpn): Audio: gsm_ms, 44100 Hz, 1 channels, s16, 71 kb/s
    Metadata:
      title           : GSM 6.10 Mono Audio
    Stream #0.13(jpn): Audio: truespeech, 8000 Hz, 1 channels, s16, 8 kb/s
    Metadata:
      title           : TrueSpeech Mono Audio
    Stream #0.14(jpn): Audio: wmav2, 44100 Hz, 2 channels, s16, 64 kb/s
    Metadata:
      title           : WMA7 2ch Audio
    Stream #0.15(jpn): Audio: wmav2, 44100 Hz, 2 channels, s16, 64 kb/s
    Metadata:
      title           : WMA8 2ch Audio
    Stream #0.16(jpn): Audio: wmavoice, 22050 Hz, 1 channels, flt, 20 kb/s
    Metadata:
      title           : WMA9 Voice Mono Audio
    Stream #0.17(jpn): Audio: wmav2, 48000 Hz, 2 channels, s16, 64 kb/s
    Metadata:
      title           : WMA9.2 Std 2ch Audio
    Stream #0.18(eng): Audio: wmapro, 48000 Hz, 5.1, flt, 192 kb/s
    Metadata:
      title           : WMA9.1 Pro 6ch Audio
    Stream #0.19(jpn): Audio: wmapro, 48000 Hz, stereo, flt, 80 kb/s
    Metadata:
      title           : WMA9.1 Pro 2ch Audio
    Stream #0.20(eng): Audio: wmapro, 48000 Hz, 5.1, flt, 192 kb/s
    Metadata:
      title           : WMA10 Pro 6ch Audio
    Stream #0.21(jpn): Audio: wmapro, 48000 Hz, stereo, flt, 64 kb/s
    Metadata:
      title           : WMA10 Pro 2ch Audio
    Stream #0.22(eng): Audio: wmalossless, 48000 Hz, 6 channels, s32, 1882 kb/s
    Metadata:
      title           : WMA9.1 Lossless 6ch Audio
    Stream #0.23(jpn): Audio: wmalossless, 48000 Hz, 2 channels, s32, 774 kb/s
    Metadata:
      title           : WMA9.1 Lossless 2ch Audio
    Stream #0.24(jpn): Audio: cook, 44100 Hz, stereo, flt
    Metadata:
      title           : RA6 G2 Cook 2ch Audio
    Stream #0.25(jpn): Audio: atrac3, 44100 Hz, 2 channels, s16
    Metadata:
      title           : RA8 ATRC 2ch Audio
    Stream #0.26(eng): Audio: cook, 44100 Hz, 5.1, flt
    Metadata:
      title           : RA8 Cook 6ch Audio
    Stream #0.27(jpn): Audio: cook, 44100 Hz, stereo, flt
    Metadata:
      title           : RA8 Cook 2ch Audio
    Stream #0.28(jpn): Audio: cook, 44100 Hz, mono, flt
    Metadata:
      title           : RA8 Cook Mono Audio
    Stream #0.29(jpn): Audio: aac, 32000 Hz, stereo, s16
    Metadata:
      title           : RA10 RAAC 2ch Audio
    Stream #0.30(jpn): Audio: aac, 44100 Hz, stereo, s16
    Metadata:
      title           : RA10 RACP 2ch Audio
File 'out.wav' already exists. Overwrite ? [y/N] y
Incompatible sample format 's32' for codec 'pcm_s16le', auto-selecting format
's
16'
[wmalossless @ 0x4999380] bit-depth higher than 16 not implemented. Update your
Libav version to the newest one from Git. If the problem still occurs, it means
that your file has a feature which has not been implemented.
Output #0, wav, to 'out.wav':
  Metadata:
    title           : Macross Plus - First Simulator Test
    Stream #0.0(eng): Audio: pcm_s16le, 48000 Hz, 6 channels, s16, 4608 kb/s
    Metadata:
      title           : WMA9.1 Lossless 6ch Audio
Stream mapping:
  Stream #0:22 -> #0:0 (wmalossless -> pcm_s16le)
Error while opening decoder for input stream #0:22




C:\>avconv -i [CCCP]_Mega_Weird_Audio_Test.mkv -map 0:23 out.wav
avconv version v0.8-1303-g0aaa45e, Copyright (c) 2000-2012 the Libav developers
  built on Apr  3 2012 02:27:37 with gcc 4.5.0 20100414 (Fedora MinGW
4.5.0-1.fc
14)
[wmalossless @ 0x4999380] bit-depth higher than 16 not implemented. Update your
Libav version to the newest one from Git. If the problem still occurs, it means
that your file has a feature which has not been implemented.
[wmalossless @ 0x499ae20] bit-depth higher than 16 not implemented. Update your
Libav version to the newest one from Git. If the problem still occurs, it means
that your file has a feature which has not been implemented.
[mpeg4 @ 0x4419140] Invalid and inefficient vfw-avi packed B frames detected
[wmalossless @ 0x4999380] bit-depth higher than 16 not implemented. Update your
Libav version to the newest one from Git. If the problem still occurs, it means
that your file has a feature which has not been implemented.
[wmalossless @ 0x499ae20] bit-depth higher than 16 not implemented. Update your
Libav version to the newest one from Git. If the problem still occurs, it means
that your file has a feature which has not been implemented.
[matroska,webm @ 0x4418c60] Estimating duration from bitrate, this may be
inaccu
rate
Input #0, matroska,webm, from '[CCCP]_Mega_Weird_Audio_Test.mkv':
  Metadata:
    title           : Macross Plus - First Simulator Test
  Duration: 00:01:03.70, start: 0.000000, bitrate: 5050 kb/s
    Stream #0.0(eng): Video: mpeg4 (Advanced Simple Profile), yuv420p, 656x464
[
PAR 1:1 DAR 41:29], PAR 116:123 DAR 4:3, 23.98 fps, 1k tbn, 23.98 tbc (default)
    Metadata:
      title           : Macross Plus - First Simulator Test
    Stream #0.1(eng): Audio: ac3, 48000 Hz, 5.1, s16, 448 kb/s (default)
    Metadata:
      title           : AC3 6ch Audio
    Stream #0.2(jpn): Audio: ac3, 48000 Hz, stereo, s16, 192 kb/s
    Metadata:
      title           : AC3 2ch Audio
    Stream #0.3(eng): Audio: mp3, 48000 Hz, 2 channels, s16, 192 kb/s
    Metadata:
      title           : AudX HGHQ 6ch Audio
    Stream #0.4(eng): Audio: mp3, 48000 Hz, 1 channels, s16, 192 kb/s
    Metadata:
      title           : AudX SPBQ 6ch Audio
    Stream #0.5(jpn): Audio: sipr, 16000 Hz, 1 channels, flt, 16 kb/s
    Metadata:
      title           : ACELP Sipro Mono Audio
    Stream #0.6(jpn): Audio: adpcm_ms, 11025 Hz, 2 channels, s16, 88 kb/s
    Metadata:
      title           : MS ADPCM 2ch Audio
    Stream #0.7(jpn): Audio: adpcm_ima_wav, 11025 Hz, 2 channels, s16, 88 kb/s
    Metadata:
      title           : IMA ADPCM 2ch Audio
    Stream #0.8(jpn): Audio: adpcm_yamaha, 16000 Hz, 1 channels, s16, 64 kb/s
    Metadata:
      title           : Yamaha ADPCM Mono Audio
    Stream #0.9(jpn): Audio: g726, 8000 Hz, 1 channels, s16, 32 kb/s
    Metadata:
      title           : G.726 ADPCM Mono Audio
    Stream #0.10(jpn): Audio: pcm_mulaw, 8000 Hz, 2 channels, s16, 128 kb/s
    Metadata:
      title           : +--Law 2ch Audio
    Stream #0.11(jpn): Audio: pcm_alaw, 8000 Hz, 2 channels, s16, 128 kb/s
    Metadata:
      title           : A-Law 2ch Audio
    Stream #0.12(jpn): Audio: gsm_ms, 44100 Hz, 1 channels, s16, 71 kb/s
    Metadata:
      title           : GSM 6.10 Mono Audio
    Stream #0.13(jpn): Audio: truespeech, 8000 Hz, 1 channels, s16, 8 kb/s
    Metadata:
      title           : TrueSpeech Mono Audio
    Stream #0.14(jpn): Audio: wmav2, 44100 Hz, 2 channels, s16, 64 kb/s
    Metadata:
      title           : WMA7 2ch Audio
    Stream #0.15(jpn): Audio: wmav2, 44100 Hz, 2 channels, s16, 64 kb/s
    Metadata:
      title           : WMA8 2ch Audio
    Stream #0.16(jpn): Audio: wmavoice, 22050 Hz, 1 channels, flt, 20 kb/s
    Metadata:
      title           : WMA9 Voice Mono Audio
    Stream #0.17(jpn): Audio: wmav2, 48000 Hz, 2 channels, s16, 64 kb/s
    Metadata:
      title           : WMA9.2 Std 2ch Audio
    Stream #0.18(eng): Audio: wmapro, 48000 Hz, 5.1, flt, 192 kb/s
    Metadata:
      title           : WMA9.1 Pro 6ch Audio
    Stream #0.19(jpn): Audio: wmapro, 48000 Hz, stereo, flt, 80 kb/s
    Metadata:
      title           : WMA9.1 Pro 2ch Audio
    Stream #0.20(eng): Audio: wmapro, 48000 Hz, 5.1, flt, 192 kb/s
    Metadata:
      title           : WMA10 Pro 6ch Audio
    Stream #0.21(jpn): Audio: wmapro, 48000 Hz, stereo, flt, 64 kb/s
    Metadata:
      title           : WMA10 Pro 2ch Audio
    Stream #0.22(eng): Audio: wmalossless, 48000 Hz, 6 channels, s32, 1882 kb/s
    Metadata:
      title           : WMA9.1 Lossless 6ch Audio
    Stream #0.23(jpn): Audio: wmalossless, 48000 Hz, 2 channels, s32, 774 kb/s
    Metadata:
      title           : WMA9.1 Lossless 2ch Audio
    Stream #0.24(jpn): Audio: cook, 44100 Hz, stereo, flt
    Metadata:
      title           : RA6 G2 Cook 2ch Audio
    Stream #0.25(jpn): Audio: atrac3, 44100 Hz, 2 channels, s16
    Metadata:
      title           : RA8 ATRC 2ch Audio
    Stream #0.26(eng): Audio: cook, 44100 Hz, 5.1, flt
    Metadata:
      title           : RA8 Cook 6ch Audio
    Stream #0.27(jpn): Audio: cook, 44100 Hz, stereo, flt
    Metadata:
      title           : RA8 Cook 2ch Audio
    Stream #0.28(jpn): Audio: cook, 44100 Hz, mono, flt
    Metadata:
      title           : RA8 Cook Mono Audio
    Stream #0.29(jpn): Audio: aac, 32000 Hz, stereo, s16
    Metadata:
      title           : RA10 RAAC 2ch Audio
    Stream #0.30(jpn): Audio: aac, 44100 Hz, stereo, s16
    Metadata:
      title           : RA10 RACP 2ch Audio
File 'out.wav' already exists. Overwrite ? [y/N] y
Incompatible sample format 's32' for codec 'pcm_s16le', auto-selecting format
's
16'
[wmalossless @ 0x499ae20] bit-depth higher than 16 not implemented. Update your
Libav version to the newest one from Git. If the problem still occurs, it means
that your file has a feature which has not been implemented.
Output #0, wav, to 'out.wav':
  Metadata:
    title           : Macross Plus - First Simulator Test
    Stream #0.0(jpn): Audio: pcm_s16le, 48000 Hz, 2 channels, s16, 1536 kb/s
    Metadata:
      title           : WMA9.1 Lossless 2ch Audio
Stream mapping:
  Stream #0:23 -> #0:0 (wmalossless -> pcm_s16le)
Error while opening decoder for input stream #0:23

-- 
Configure bugmail: https://bugzilla.libav.org/userprefs.cgi?tab=email
------- You are receiving this mail because: -------
You are watching all bug changes.


More information about the libav-bugs mailing list